Skip to main content

Shokazoba Live at Hylands Orchard & Brewery on 2012-06-17


Topics Disc Jam 2012




Collection Shokazoba
Band/Artist Shokazoba
Venue Hylands Orchard & Brewery
Location Sturbridge, MA

Source Schoeps Mk41>KC5>CMC6>Sonosax SX-R4(24bit/96khz) & Soundboard
Lineage WAV>USB>Macbook Pro>Audacity(mixing)>Wave Editor(tracking,fades,resample(izotope)/dither(mbit+)to 16 bit/44.1k)>XAct(FLAC 8,ffp,fix sbe)
Taped by Andy Murray
Transferred by Andy Murray

Notes

Shokazoba
2012-06-17
Disc Jam 2012
Hylands Orchard & Brewery
Sturbridge, MA

Recorded and transferred by Andy Murray

Mics were 30' from stage DFC DIN

Schoeps MK41>KC5>CMC6>Sonosax SX-R4(24bit/96khz) & Soundboard>SX-R4

WAV>USB>Macbook Pro>Audacity(mixing)Wave Editor(tracking,fades,resample(izotope)/dither(mbit+)to 16 bit/44.1k)>XAct(FLAC 8,ffp,fix sbe)

1 Set

length expanded size cdr WAVE problems fmt ratio filename
0:32.18 5687180 B --- -- ----- wav 1.0000 shokazoba2012-06-17_mk41sbmix_1644_d1t01.wav
6:13.41 65893676 B --- -- ----- wav 1.0000 shokazoba2012-06-17_mk41sbmix_1644_d1t02.wav
7:18.20 77310284 B --- -- ----- wav 1.0000 shokazoba2012-06-17_mk41sbmix_1644_d1t03.wav
6:54.11 73055516 B --- -- ----- wav 1.0000 shokazoba2012-06-17_mk41sbmix_1644_d1t04.wav
10:30.54 111259052 B --- -- ----- wav 1.0000 shokazoba2012-06-17_mk41sbmix_1644_d1t05.wav
8:36.12 91050668 B --- -- ----- wav 1.0000 shokazoba2012-06-17_mk41sbmix_1644_d1t06.wav
40:05.06 424256376 B 1.0000 (6 files)

Reviews

There are no reviews yet. Be the first one to write a review.
PEOPLE ALSO FOUND
Shokazoba
by Shokazoba
61
0
0
Source: Schoeps Mk41>KC5>CMC6>Sonosax SX-R4(24bit/96khz) & Soundboard
Shokazoba
by Shokazoba
48
0
0
Source: Schoeps Mk41>KC5>CMC6>Sonosax SX-R4(24bit/96khz) & Soundboard
( 1 reviews )
Source: Schoeps Mk41>KC5>CMC6>Sonosax SX-R4(24bit/96khz) & Soundboard
Source: Schoeps MK41>KC5>CMC6>Sonosax SX-M2>Apogee Mini-me(aes out,24bit/96khz)>COAX>Edirol R-44 & Soundboard>R-44
Source: Schoeps Mk41>KC5>CMC6>Sonosax SX-R4(24bit/96khz) & Soundboard
Nate Wilson Group
by Nate Wilson Group
62
0
0
Source: Schoeps MK4>Aerco MP-2>Edirol R-44(channels 3&4,24 bit/96 khz)
Otis Grove
by Otis Grove
15
0
0
Source: Schoeps MK41>KC5>CMC6>Sonosax SX-R4(24bit/48khz)
Nate Wilson Group
by Nate Wilson Group
75
0
0
Source: Schoeps MK22>KC5>CMC6>Sonosax SX-M2>Apogee Mini-me(aes out,24bit/96khz)>COAX>Edirol R-44 + Soundboard>R-44
Banana Phonetic
by Banana Phonetic
279
0
0
Source: Schoeps MK41>KC5>CMC6>Sonosax SX-M2>Apogee Mini-me(aes out,24bit/96khz)>COAX>Edirol R-44
Otis Grove
by Otis Grove
34
0
0
Source: Schoeps MK22/MK4>KC5>CMC6>Sonosax SX-R4(24bit/96khz) & SB>SX-R4